Super 8-Bit Brothers: Melee (2005) Brawl (2009)

2005 - Melee
2005 - Melee
01. My Princess Is In Another Castle (3:32)
02. Gonna Stay Inside (3:40)
03. Don't Blame The Controller (2:40)
04. Robot Plane Dinosaur (3:38)
05. Joystick (2:28)
06. A Bubble Can Pop (1:21)
07. Super Rygon (3:14)
08. Something To Prove (3:21)
09. Eight Bit Love Song (2:52)
10. Water Level (2:55)
11. Nebulon (3:54)
12. Enjoy The Ride (2:25)
13. Motivation (2:49)
14. Last Token (4:21)
15. Final Boss (2:57)
16. Bite The Wax Tadpole (5:26)
EACLOG
EACLOG
Exact Audio Copy V0.99 prebeta 5 from 4. May 2009EAC extraction logfile from 16. May 2009, 10:55Super 8-Bit Brothers / MeleeUsed drive : HL-DT-STDVDRAM GMA-4082N Adapter: 1 ID: 0Read mode : SecureUtilize accurate stream : YesDefeat audio cache : YesMake use of C2 pointers : NoRead offset correction : 667Overread into Lead-In and Lead-Out : NoFill up missing offset samples with silence : YesDelete leading and trailing silent blocks : NoNull samples used in CRC calculations : YesUsed interface : Native Win32 interface for Win NT & 2000Gap handling : Appended to previous trackUsed output format : User Defined EncoderSelected bitrate : 1024 kBit/sQuality : HighAdd ID3 tag : NoCommand line compressor : C:\Program Files\FLAC\flac.exeAdditional command line options : -V -8 -T "artist=%a" -T "title=%t" -T "album=%g" -T "date=%y" -T "tracknumber=%n" -T "genre=%m" %sTOC of the extracted CD Track | Start | Length | Start sector | End sector --------------------------------------------------------- 1 | 0:00.00 | 3:31.67 | 0 | 15891 2 | 3:31.67 | 3:40.37 | 15892 | 32428 3 | 7:12.29 | 2:39.62 | 32429 | 44415 4 | 9:52.16 | 3:38.23 | 44416 | 60788 5 | 13:30.39 | 2:28.22 | 60789 | 71910 6 | 15:58.61 | 1:21.31 | 71911 | 78016 7 | 17:20.17 | 3:13.45 | 78017 | 92536 8 | 20:33.62 | 3:21.36 | 92537 | 107647 9 | 23:55.23 | 2:51.38 | 107648 | 120510 10 | 26:46.61 | 2:55.28 | 120511 | 133663 11 | 29:42.14 | 3:54.00 | 133664 | 151213 12 | 33:36.14 | 2:24.63 | 151214 | 162076 13 | 36:01.02 | 2:49.37 | 162077 | 174788 14 | 38:50.39 | 4:21.04 | 174789 | 194367 15 | 43:11.43 | 2:57.33 | 194368 | 207675 16 | 46:09.01 | 5:26.26 | 207676 | 232151Track 1 Filename C:\Ripped Music\Super 8-Bit Brothers05 - Melee - My Princess Is In Another Castle.wav Pre-gap length 0:00:02.00 Peak level 99.9 % Track quality 100.0 % Test CRC 708CDB90 Copy CRC 708CDB90 Accurately ripped (confidence 1) [E4FF517C] Copy OKTrack 2 Filename C:\Ripped Music\Super 8-Bit Brothers05 - Melee - Gonna Stay Inside.wav Pre-gap length 0:00:00.49 Peak level 99.9 % Track quality 99.9 % Test CRC A0C584E2 Copy CRC A0C584E2 Accurately ripped (confidence 1) [7B979C91] Copy OKTrack 3 Filename C:\Ripped Music\Super 8-Bit Brothers05 - Melee - Don't Blame The Controller.wav Pre-gap length 0:00:00.49 Peak level 99.9 % Track quality 100.0 % Test CRC CA99E1AF Copy CRC CA99E1AF Accurately ripped (confidence 1) [88EB82DB] Copy OKTrack 4 Filename C:\Ripped Music\Super 8-Bit Brothers05 - Melee - Robot Plane Dinosaur.wav Pre-gap length 0:00:00.49 Peak level 99.9 % Track quality 100.0 % Test CRC 6D354299 Copy CRC 6D354299 Accurately ripped (confidence 1) [B0B27934] Copy OKTrack 5 Filename C:\Ripped Music\Super 8-Bit Brothers05 - Melee - Joystick.wav Pre-gap length 0:00:00.49 Peak level 99.5 % Track quality 100.0 % Test CRC E0267682 Copy CRC E0267682 Accurately ripped (confidence 1) [86122408] Copy OKTrack 6 Filename C:\Ripped Music\Super 8-Bit Brothers05 - Melee - A Bubble Can Pop.wav Pre-gap length 0:00:00.49 Peak level 92.5 % Track quality 100.0 % Test CRC EF26E33D Copy CRC EF26E33D Accurately ripped (confidence 1) [8BC98FC4] Copy OKTrack 7 Filename C:\Ripped Music\Super 8-Bit Brothers05 - Melee - Super Rygon.wav Pre-gap length 0:00:00.49 Peak level 99.9 % Track quality 99.9 % Test CRC 8FB7B829 Copy CRC 8FB7B829 Accurately ripped (confidence 1) [4DEAD963] Copy OKTrack 8 Filename C:\Ripped Music\Super 8-Bit Brothers05 - Melee - Something To Prove.wav Pre-gap length 0:00:00.49 Peak level 99.9 % Track quality 100.0 % Test CRC 76330F02 Copy CRC 76330F02 Accurately ripped (confidence 1) [5BE21397] Copy OKTrack 9 Filename C:\Ripped Music\Super 8-Bit Brothers05 - Melee - Eight Bit Love Song.wav Pre-gap length 0:00:00.49 Peak level 99.9 % Track quality 100.0 % Test CRC 4939E707 Copy CRC 4939E707 Accurately ripped (confidence 1) [3767C30D] Copy OKTrack 10 Filename C:\Ripped Music\Super 8-Bit Brothers05 - Melee - Water Level.wav Pre-gap length 0:00:00.49 Peak level 99.9 % Track quality 100.0 % Test CRC 90E49F03 Copy CRC 90E49F03 Accurately ripped (confidence 1) [95A455CD] Copy OKTrack 11 Filename C:\Ripped Music\Super 8-Bit Brothers05 - Melee - Nebulon.wav Pre-gap length 0:00:00.49 Peak level 99.9 % Track quality 100.0 % Test CRC 35921954 Copy CRC 35921954 Accurately ripped (confidence 1) [BE92BD2C] Copy OKTrack 12 Filename C:\Ripped Music\Super 8-Bit Brothers05 - Melee - Enjoy The Ride.wav Pre-gap length 0:00:00.49 Peak level 99.9 % Track quality 100.0 % Test CRC C74BAFC1 Copy CRC C74BAFC1 Accurately ripped (confidence 1) [02F83DD1] Copy OKTrack 13 Filename C:\Ripped Music\Super 8-Bit Brothers05 - Melee - Motivation.wav Pre-gap length 0:00:00.49 Peak level 99.5 % Track quality 100.0 % Test CRC 0AB3C719 Copy CRC 0AB3C719 Accurately ripped (confidence 1) [A8A17F6B] Copy OKTrack 14 Filename C:\Ripped Music\Super 8-Bit Brothers05 - Melee - Last Token.wav Pre-gap length 0:00:00.49 Peak level 99.9 % Track quality 100.0 % Test CRC 6AED6BF7 Copy CRC 6AED6BF7 Accurately ripped (confidence 1) [D69C55D0] Copy OKTrack 15 Filename C:\Ripped Music\Super 8-Bit Brothers05 - Melee - Final Boss.wav Pre-gap length 0:00:00.49 Peak level 99.9 % Track quality 100.0 % Test CRC 022277FD Copy CRC 022277FD Accurately ripped (confidence 1) [9BA0FAFC] Copy OKTrack 16 Filename C:\Ripped Music\Super 8-Bit Brothers05 - Melee - Bite The Wax Tadpole.wav Pre-gap length 0:00:00.49 Peak level 99.9 % Track quality 100.0 % Test CRC 24B0DA89 Copy CRC 24B0DA89 Accurately ripped (confidence 1) [79BBAD8B] Copy OKAll tracks accurately rippedNo errors occurredEnd of status report
[свернуть]CUE
CUE
REM GENRE ElectronicREM DATE 2005REM DISCID C80C1710REM COMMENT "ExactAudioCopy v0.99pb5"FILE "01 - My Princess Is In Another Castle.wav" WAVE TRACK 01 AUDIO INDEX 01 00:00:00 TRACK 02 AUDIO INDEX 00 03:31:30FILE "02 - Gonna Stay Inside.wav" WAVE INDEX 01 00:00:00 TRACK 03 AUDIO INDEX 00 03:40:00FILE "03 - Don't Blame The Controller.wav" WAVE INDEX 01 00:00:00 TRACK 04 AUDIO INDEX 00 02:39:25FILE "04 - Robot Plane Dinosaur.wav" WAVE INDEX 01 00:00:00 TRACK 05 AUDIO INDEX 00 03:37:61FILE "05 - Joystick.wav" WAVE INDEX 01 00:00:00 TRACK 06 AUDIO INDEX 00 02:27:60FILE "06 - A Bubble Can Pop.wav" WAVE INDEX 01 00:00:00 TRACK 07 AUDIO INDEX 00 01:20:69FILE "07 - Super Rygon.wav" WAVE INDEX 01 00:00:00 TRACK 08 AUDIO INDEX 00 03:13:08FILE "08 - Something To Prove.wav" WAVE INDEX 01 00:00:00 TRACK 09 AUDIO INDEX 00 03:20:74FILE "09 - Eight Bit Love Song.wav" WAVE INDEX 01 00:00:00 TRACK 10 AUDIO INDEX 00 02:51:01FILE "10 - Water Level.wav" WAVE INDEX 01 00:00:00 TRACK 11 AUDIO INDEX 00 02:54:66FILE "11 - Nebulon.wav" WAVE INDEX 01 00:00:00 TRACK 12 AUDIO INDEX 00 03:53:38FILE "12 - Enjoy The Ride.wav" WAVE INDEX 01 00:00:00 TRACK 13 AUDIO INDEX 00 02:24:26FILE "13 - Motivation.wav" WAVE INDEX 01 00:00:00 TRACK 14 AUDIO INDEX 00 02:49:00FILE "14 - Last Token.wav" WAVE INDEX 01 00:00:00 TRACK 15 AUDIO INDEX 00 04:20:42FILE "15 - Final Boss.wav" WAVE INDEX 01 00:00:00 TRACK 16 AUDIO INDEX 00 02:56:71FILE "16 - Bite The Wax Tadpole.wav" WAVE INDEX 01 00:00:00